Telecharger Massilia Sound System - Le Film Blueray | skeletons | Rookie Agent Rouge

Reading RSS
 
JTC - Roy Ziv - Learn To Play Leap Of Faith (2017)
JTC - Roy Ziv - Learn To Play Leap Of Faith (2017)
WEBRip | English | MP4 + MP3 + PDF Guides | 1280 x 720 | AVC ~3447 kbps | 29.970 fps
AAC 317 Kbps 48.0 KHz | 2 channels | 00:58:35 | 1.87 GB
Genre: eLearning Video / Guitar lesson


We're proud to welcome Roy Ziv to the JTC roster! Roy hits the ground running as he debuts at JTC with his energetic, infectious and highly melodic new track 'Leap Of Faith'. In this package Roy has extracted 20 of his favourite licks so that you can learn to play the full song in bite sized manageable chunks, allowing you to master each lick one at a time before moving onto the next!
If you're into the theory side of things, you'll encounter lots of creative melodic and harmonic devices such as chromatics and melodic ornamentation as well as blues, dorian, minor pentatonic, major and lydian scales. You'll also find a few key changes and multiple time signatures (4/4 and 7/8 both being prominently featured!).

On the technique front you'll be using everything from slides and bending, to alternate picking, tapping, economy/sweep picking, legato, string skipping and more!

Choose deluxe and you also get 20 lessons taught to you by Roy himself, where he breaks down each lick slowly and explains what's going on step by step. This is the best way to truly internalise the information so you can rock the full track with even more confidence! If you want to watch the track in full you can click here to watch it on our YouTube channel!

So if you're looking for an exciting, challenging, melodic new track to kick start your instrumental rock chops, then grab this brand new Roy Ziv 20 licks pack today!

As ever, we have included everything you need to practise and perfect the material in this package. There are video and audio tracks for you to watch/listen and study, accurately transcribed TAB/notation for you to analyse and master, and backing tracks for everything! We've even included some text notes to help you really get these parts down!

Package details

Rock | Intermediate | Twenty Licks

What you get

Full Playthrough (Video/Audio)
20 Lick Videos
20 Lick Audio Files
20 Lick Backings
Full Jamtrack
TAB/Notation
Lick Notes
20 Breakdown Lessons (Deluxe Only!)

General
Complete name : rz_leapoffaith_lick09_deluxe.mp4
Format : MPEG-4
Format profile : Base Media / Version 2
Codec ID : mp42 (mp42/mp41)
File size : 53.7 MiB
Duration : 1 min 59 s
Overall bit rate mode : Variable
Overall bit rate : 3 773 kb/s
Encoded date : UTC 2017-04-05 16:09:26
Tagged date : UTC 2017-04-05 16:09:33
©TIM : 00:00:00:00
©TSC : 30000
©TSZ : 1001

Video
ID : 1
Format : AVC
Format/Info : Advanced Video Codec
Format profile : [email protected]
Format settings, CABAC : Yes
Format settings, ReFrames : 3 frames
Codec ID : avc1
Codec ID/Info : Advanced Video Coding
Duration : 1 min 59 s
Bit rate : 3 447 kb/s
Width : 1 280 pixels
Height : 720 pixels
Display aspect ratio : 16:9
Frame rate mode : Constant
Frame rate : 29.970 (30000/1001) FPS
Standard : NTSC
Color space : YUV
Chroma subsampling : 4:2:0
Bit depth : 8 bits
Scan type : Progressive
Bits/(Pixel*Frame) : 0.125
Stream size : 49.1 MiB (91%)
Language : English
Encoded date : UTC 2017-04-05 16:09:26
Tagged date : UTC 2017-04-05 16:09:26
Color range : Limited
Color primaries : BT.709
Transfer characteristics : BT.709
Matrix coefficients : BT.709

Audio
ID : 2
Format : AAC
Format/Info : Advanced Audio Codec
Format profile : LC
Codec ID : 40
Duration : 1 min 59 s
Source duration : 1 min 59 s
Bit rate mode : Variable
Bit rate : 317 kb/s
Maximum bit rate : 369 kb/s
Channel(s) : 2 channels
Channel positions : Front: L R
Sampling rate : 48.0 kHz
Frame rate : 46.875 FPS (1024 spf)
Compression mode : Lossy
Stream size : 4.52 MiB (8%)
Source stream size : 4.52 MiB (8%)
Language : English
Encoded date : UTC 2017-04-05 16:09:26
Tagged date : UTC 2017-04-05 16:09:26

JTC - Roy Ziv - Learn To Play Leap Of Faith (2017)

Download link:



Links are Interchangeable - No Password - Single Extraction
Dear visitor, you went to the site as unregistered user.
We recommend that you create or enter the site your name.
Information
Would you like to leave your comment and see hide contents ? Please Login to your account to leave comments. Don't have an account? You can create a free account now.

News Archive

|||||||

Popular Tags

Popular Download